<?xml version="1.0" standalone="no"?>
<!DOCTYPE svg PUBLIC "-//W3C//DTD SVG 1.1//EN" "http://www.w3.org/Graphics/SVG/1.1/DTD/svg11.dtd">
<svg xmlns="http://www.w3.org/2000/svg">
<metadata>Copyright (C) 2024 by original authors @ fontello.com</metadata>
<defs>
<font id="fontello" horiz-adv-x="1000" >
<font-face font-family="fontello" font-weight="400" font-stretch="normal" units-per-em="1000" ascent="850" descent="-150" />
<missing-glyph horiz-adv-x="1000" />
<glyph glyph-name="wpcp-arrow-triangle-left" unicode="&#xe800;" d="M534-9l-415 342 415 342v-684z m41-120c9 0 18 8 18 20v884c0 12-9 24-18 24-3 0-6 0-10-4l-534-442c-12-8-12-28 0-40l534-438c3-4 7-4 10-4z" horiz-adv-x="643" />

<glyph glyph-name="wpc-miscellaneous" unicode="&#xe801;" d="M775 400h-375c-25 0-50-25-50-50s25-50 50-50h375c25 0 50 19 50 50 0 25-19 50-50 50z m0 206h-375c-25 0-50-25-50-50 0-25 25-50 50-50h375c25 0 50 19 50 50 0 25-19 50-50 50z m0-406h-375c-25 0-50-25-50-50 0-25 25-50 50-50h375c25 0 50 19 50 50 0 25-19 50-50 50z m50 650h-644c-100 0-181-81-181-181v-638c0-100 81-181 181-181h638c100 0 181 81 181 175v644c0 100-81 181-175 181z m88-825c0-50-38-88-88-88h-644c-50 0-87 38-87 88v644c0 50 37 87 87 87h644c50 0 88-37 88-87v-644z m-669 463c37 0 62 25 62 62s-25 63-62 63-63-25-63-63 32-62 63-62z m0-200c37 0 62 25 62 62s-25 63-62 63-63-25-63-63 32-62 63-62z m0-200c37 0 62 25 62 62s-25 63-62 63-63-25-63-63 32-62 63-62z" horiz-adv-x="1000" />

<glyph glyph-name="wpcp-right-open-1" unicode="&#xe802;" d="M618 361l-414-415q-11-10-25-10t-25 10l-93 93q-11 11-11 25t11 25l296 297-296 296q-11 11-11 25t11 25l93 93q10 11 25 11t25-11l414-414q10-11 10-25t-10-25z" horiz-adv-x="714.3" />

<glyph glyph-name="wpc-navigation" unicode="&#xe803;" d="M394 688c-25 18-63 18-81-7l-294-293c-25-25-25-57 0-82l294-287c18-19 56-19 75 0 25 25 25 56 0 81l-250 250 256 256c25 25 25 57 0 82z m587-300l-293 293c-25 25-57 25-82 0-18-18-18-56 7-75l250-256-257-256c-25-25-25-56 0-81 13-13 50-26 75 0l294 293c31 25 31 63 6 82z" horiz-adv-x="1000" />

<glyph glyph-name="wpcp-right-open-big" unicode="&#xe804;" d="M13-20l358 370-358 372q-26 26 0 48 26 26 48 0l392-394q24-26 0-50l-392-394q-22-26-48 0-26 22 0 48z" horiz-adv-x="465" />

<glyph glyph-name="wpc-lightbox-general" unicode="&#xe805;" d="M569-44c-6-6-19-19-25-19-25-12-56-12-81 0s-44 38-44 63c0 13-13 25-25 31-19 0-31 7-44 13-12 6-25 6-37-6-25-19-50-19-82-13-25 13-43 31-50 63-6 25-6 56 13 81 6 12 12 25 6 37-12 7-19 19-19 32-6 12-18 25-31 25-25 6-50 25-62 50s-13 56 0 81c12 19 37 37 62 44 13 0 25 12 31 25 0 12 7 25 13 37 6 13 6 25-6 38-13 18-19 50-13 81 13 25 31 50 56 56 32 6 63 0 82-12 12-7 25-13 37-7 19 7 25 13 38 13 12 6 25 12 25 31 6 25 25 50 50 63 25 12 56 12 81 0 25-13 44-38 44-63 0-12 12-25 25-31 12 0 25-6 37-13 13-6 25-6 38 0 25 19 50 19 75 13 25-6 50-31 56-56 6-25 6-57-13-75-6-13-6-25 0-38 7-12 13-25 13-37 6-13 19-25 31-25 19-7 38-13 56-32 13-18 19-37 19-56 0-19-6-44-19-56 0-6-6-6-12-13-19-12-19-37-6-50 12-12 37-18 50-6 6 6 12 13 18 19 32 31 44 69 44 106 0 38-12 75-37 106-19 25-44 44-75 50 0 0 0 7 0 7 18 37 25 81 6 125-19 50-63 87-106 100-44 12-88 12-125-7 0 0 0 0-7 0-12 44-43 75-81 100-50 25-100 25-150 0-37-18-62-56-81-100 0 0 0 0-6 0-32 25-82 32-125 13-50-13-94-50-107-106-12-44-12-88 13-125 0 0 0-7 0-7-44-12-81-43-100-81-25-44-25-100 0-150 19-37 56-69 100-81 0 0 0-6 0-6-19-38-25-88-13-125 19-50 57-88 107-107 43-12 87-12 125 13 0 0 6 0 6 0 12-44 44-75 81-100 25-13 50-19 75-19 25 0 50 6 75 19 19 12 38 25 50 43 13 19 13 38-6 50-19 13-38 13-50-6z m150 344c0 13 6 31 6 44 0 56-25 119-69 162-37 44-100 69-156 69-25 0-50-6-75-12-12-7-19-19-19-32s0-25 13-37l56-56c19-19 19-50 0-69-19-19-50-19-69 0l-56 62c-12 7-25 13-37 7-13 0-25-13-25-25-7-19-13-38-13-63 0-62 25-119 69-156 44-44 100-69 156-69 13 0 31 0 44 6l237-237c32-32 63-44 94-44 31 0 63 12 88 37 25 25 37 57 37 88 0 31-12 63-37 88l-244 237z m-325-56c-19 19-31 44-38 75 44-44 125-38 169 6 50 50 50 125 0 175l0 0c31-6 63-19 88-44 31-31 43-68 43-106 0-37-12-75-43-106-63-56-163-56-219 0z m512-300c-18-19-50-19-68 0l-213 219c13 6 25 18 38 31 12 12 18 25 31 37l219-218c12-13 12-26 12-38 0-13-6-25-19-31z" horiz-adv-x="1000" />

<glyph glyph-name="wpcp-right-open-outline" unicode="&#xe806;" d="M156-66q-63 0-110 46t-46 111 46 110l150 150-150 150q-46 46-46 110 0 65 46 111 44 44 110 44t110-44l372-371-372-372q-45-45-110-45z m0 729q-21 0-37-16t-15-36q0-20 16-37l223-223-223-224q-16-16-16-36 0-22 16-38 15-15 36-15t37 15l297 298-297 297q-15 15-37 15z" horiz-adv-x="638" />

<glyph glyph-name="wpcp-right" unicode="&#xe807;" d="M0 347q0 26 18 43t43 17h642l-242 244q-19 18-19 44t19 42q17 19 42 19t44-19l390-390-390-391q-20-18-44-18t-42 18-19 44 19 43l242 242h-642q-25 0-43 18t-18 44z" horiz-adv-x="938" />

<glyph glyph-name="wps-block" unicode="&#xe808;" d="M861 490l-634 59c-3 1-7 1-10 0l-26 123c0 3-1 5-2 7-4 10-12 18-23 21l-121 36c-18 6-38-5-43-24-6-18 5-38 24-44l100-29 122-585c2-18 17-31 35-31l522 0c19 0 35 16 35 36 0 19-16 35-35 35l-493 0-17 80h519c27 0 51 18 56 43l42 212c5 30-18 58-51 61z m-421-187c0-8-7-14-16-14h-56c-9 0-16 6-16 14v90c0 8 7 14 16 14h56c9 0 16-6 16-14v-90z m144 0c0-8-7-14-16-14h-56c-9 0-16 6-16 14v90c0 8 7 14 16 14h56c9 0 16-6 16-14v-90z m144 0c0-8-7-14-16-14h-56c-9 0-16 6-16 14v90c0 8 7 14 16 14h56c9 0 16-6 16-14v-90z m-405 273l8 0 25-2 102-10 4 39c5 54 53 93 106 88 54-5 93-52 88-106l-4-39 103-10 33-3c12-1 22 8 23 20l4 35c1 12-8 23-20 24l-33 3c-3 27-11 53-24 76l26 21c9 8 11 22 3 32l-23 27c-7 9-21 10-31 3l-25-21c-21 16-44 29-71 37l3 33c2 12-7 22-19 23l-36 4c-12 1-23-8-24-20l-3-33c-27-3-53-11-76-23l-21 25c-8 9-22 11-31 3l-27-23c-10-7-11-21-3-31l21-25c-17-21-29-44-37-71l-33 3c-12 2-23-7-24-19l-3-36c-2-12 7-22 19-24z" horiz-adv-x="912" />

<glyph glyph-name="wpc-block" unicode="&#xe809;" d="M1285-150h-1285v1000h1285v-1000z m-1140 145h995v710h-995v-710z m872 336l-149-149c-11-11-28-11-38 0l-25 25c-10 10-10 27 0 37l106 106-106 106c-10 10-10 27 0 37l25 25c10 11 27 11 37 0l150-149c11-11 11-27 0-38z m-749 38l150 149c10 11 27 11 37 0l25-24c10-11 10-27 0-38l-106-106 106-106c10-10 10-27 0-37l-25-25c-10-11-27-11-37 0l-150 149c-10 11-10 27 0 38z" horiz-adv-x="1285" />

<glyph glyph-name="image-and-thumbnail" unicode="&#xe80a;" d="M913 850h-632c-50 0-87-37-87-87l0-638c0-44 44-81 87-81h632c50 0 87 37 87 87v632c0 50-37 87-87 87z m-632-81l0 0 632-6v-300l-50 56c-7 6-19 12-25 12-13 0-19-6-25-12l-238-263-106 119c-6 6-13 13-25 13-13 0-19-7-25-13l-138-150 0 544 0 0z m175-638l-150 0 138 157 81-88-69-69 0 0z m113 0l6 13 50 56 0 0 206 231 75-87v-206l-337-7z m-419 7v125h-119c-18 0-31-19-31-32v-350c0-19 13-31 31-31h344c19 0 31 19 31 31v119 6h-125c-68 0-131 57-131 132z m481 325c57 0 100 43 100 100 0 56-43 100-100 100-56 0-100-44-100-100 0-50 44-100 100-100z m0 143c25 0 38-18 38-43 0-25-19-38-38-38-25 0-43 19-43 38 6 25 25 43 43 43z" horiz-adv-x="1000" />

<glyph glyph-name="wpc-lightbox-icon" unicode="&#xe80b;" d="M975-6l-156 156c125 181 100 419-50 575-88 88-200 131-319 131s-231-50-319-131c-175-175-175-462 0-637 88-88 200-132 319-132 88 0 169 25 244 75l156-156c19-19 38-25 63-25s43 6 62 25c19 19 25 37 25 62s-6 38-25 57z m-281 162c-69-68-156-100-250-100s-181 38-250 100c-69 69-100 157-100 250 0 94 37 182 100 250 69 69 156 100 250 100s181-37 250-100c137-137 137-362 0-500z m-88 300h-106v107c0 25-25 50-50 50s-50-25-50-50v-107h-106c-25 0-50-25-50-50s25-50 50-50h106v-106c0-25 25-50 50-50s50 25 50 50v106h106c25 0 50 25 50 50s-25 50-50 50z" horiz-adv-x="1000" />

<glyph glyph-name="wpcp-left-open-4" unicode="&#xe80c;" d="M481 684q32-31 32-74t-32-74l-186-186 186-186q32-31 32-74t-32-74-73-31-74 31l-334 334 334 334q30 31 74 31t73-31z" horiz-adv-x="513" />

<glyph glyph-name="wpc-lightbox-toolbar" unicode="&#xe80f;" d="M875 806h-750c-69 0-125-56-125-125v-12c0-69 56-125 125-125h750c69 0 125 56 125 125v19c0 68-56 118-125 118z m-750-168c-19 0-31 12-31 31v19c0 18 12 37 31 37h563l-7-12c-6-13-12-19-12-32 0-12 6-25 12-31l13-12h-569z m750-157h-750c-69 0-125-56-125-125v-12c0-69 56-125 125-125h750c69 0 125 56 125 125v12c0 69-56 125-125 125z m-787-125c0 19 12 32 31 32h756c19 0 31-13 31-32v-12c0-19-12-31-31-31h-750c-19 0-31 12-31 31v12z m787-206h-750c-69 0-125-56-125-125v-12c0-69 56-126 125-126h750c69 0 125 57 125 126v12c0 69-56 125-125 125z m-787-119c0 19 12 32 31 32h756c19 0 31-13 31-32v-12c0-19-12-32-31-32h-750c-19 0-31 13-31 32v12z" horiz-adv-x="1000" />

<glyph glyph-name="wpc-lightbox-animation" unicode="&#xe810;" d="M0-88c0-18 6-31 19-43 12-13 31-19 44-19 18 0 31 6 43 19l282 281c43-31 93-50 143-62l-125-126c-18-18-25-37-18-62 6-25 25-44 50-50 25-6 43 0 62 19l219 219c87 25 162 81 212 156 50 75 75 162 69 256-6 88-50 175-112 238-63 62-150 106-238 112-94 6-181-19-256-69-75-50-131-125-156-212l-219-219c-19-19-25-44-19-62 6-25 25-38 44-44 25-6 44 0 62 19l125 125c13-50 32-100 63-144l-281-282c-7-12-13-31-13-50l0 0z m613 807c68 0 131-25 181-75 50-50 75-113 75-181s-25-132-75-182c-50-50-113-75-181-75s-132 25-182 75c-50 50-75 113-75 182s25 131 75 181 113 75 182 75z" horiz-adv-x="1000" />

<glyph glyph-name="wpc-pagination" unicode="&#xe811;" d="M956 581h-906c-31 0-50 25-50 50 0 25 19 44 50 50h900c31 0 50-18 50-50 0-31-19-50-44-50z m-668-231c0-76-62-137-138-137-76 0-137 61-137 137 0 76 61 138 137 138 76 0 138-62 138-138z m250-106c58 0 106 47 106 106 0 59-48 106-106 106-59 0-107-47-107-106 0-59 48-106 107-106z m343 0c59 0 107 47 107 106 0 59-48 106-107 106-58 0-106-47-106-106 0-59 48-106 106-106z m69-125h-900c-31 0-50-19-50-50 0-25 19-50 50-50h906c25 0 50 19 50 50-6 31-25 50-56 50z" horiz-adv-x="1000" />

<glyph glyph-name="wpcp-left-open-2" unicode="&#xe814;" d="M654 682l-297-296 297-297q10-10 10-25t-10-25l-93-93q-11-10-25-10t-25 10l-414 415q-11 10-11 25t11 25l414 414q10 11 25 11t25-11l93-93q10-10 10-25t-10-25z" horiz-adv-x="714.3" />

<glyph glyph-name="wpcp-right-open-3" unicode="&#xe816;" d="M31 684q30 31 74 31t74-31l335-334-335-334q-31-31-74-31t-74 31-31 74 31 74l188 186-188 186q-31 32-31 74t31 74z" horiz-adv-x="514" />

<glyph glyph-name="wpcp-arrow-triangle-right" unicode="&#xe817;" d="M109 709l415-342-415-342v684z m-41 120c-9 0-19-8-19-20v-884c0-12 10-24 19-24 3 0 6 0 10 4l533 442c13 8 13 28 0 40l-533 438c-4 4-7 4-10 4z" horiz-adv-x="643" />

<glyph glyph-name="wpcp-left" unicode="&#xe818;" d="M0 353l390 391q19 18 44 18 25 0 43-18t18-44-18-43l-243-243h642q25 0 43-18t18-43-18-43-43-18h-642l243-243q18-18 18-44t-18-43-43-18-44 18z" horiz-adv-x="938" />

<glyph glyph-name="detail-page" unicode="&#xe81f;" d="M619 789c0 34 27 61 61 61h259c34 0 61-27 61-61v-259c0-34-27-61-61-61-34 0-61 27-61 61v112l-327-328c-24-23-63-23-87 0-23 24-23 63 0 87l328 327h-112c-34 0-61 27-61 61z m-436 7c-101 0-183-82-183-183v-580c0-101 82-183 183-183h580c101 0 183 82 183 183v244c0 34-28 61-61 61-34 0-61-27-61-61v-244c0-34-28-61-61-61h-580c-34 0-61 27-61 61v580c0 33 27 61 61 61h244c34 0 61 27 61 61 0 33-27 61-61 61h-244z" horiz-adv-x="1000" />

<glyph glyph-name="typography" unicode="&#xe820;" d="M650 650h-300c-37 0-75-19-106-44-31-25-44-68-44-106v-50h100v50c0 13 0 25 13 38 12 12 25 12 37 12h100v-400h-137c-7 0-13 0-13-12v-75c0-7 0-13 13-13h375c6 0 12 0 12 13v75c0 6 0 12-12 12h-138v400h100c13 0 25 0 38-12 12-13 12-25 12-38v-50h100v50c0 38-19 75-44 106-25 32-68 44-106 44z m200 200h-700c-37 0-75-19-106-44-31-31-44-68-44-106v-700c0-38 19-75 44-106 25-32 69-44 106-44h700c38 0 75 19 106 44 32 25 44 68 44 106v700c0 38-19 75-44 106-25 32-68 44-106 44z m50-850c0-13 0-25-12-38-13-12-25-12-38-12h-700c-12 0-25 0-37 12-13 13-13 25-13 38v700c0 13 0 25 13 38 12 12 25 12 37 12h700c13 0 25 0 38-12 12-13 12-25 12-38v-700z" horiz-adv-x="1000" />

<glyph glyph-name="wpcp-left-open-outline" unicode="&#xe821;" d="M638 91q0-64-47-111t-110-46q-65 0-110 45l-371 372 371 371q44 44 111 44t111-44q45-45 45-111 0-65-45-110l-150-150 150-150q45-45 45-110z m-490 260l297-298q15-15 37-15t37 15 15 38q0 21-15 36l-224 224 224 223q15 15 15 37 0 22-15 37t-37 15-37-15z" horiz-adv-x="638" />

<glyph glyph-name="wpcp-left-open-big" unicode="&#xe822;" d="M452-20q26-26 0-48-26-26-48 0l-392 394q-24 24 0 50l392 394q22 26 48 0 26-22 0-48l-358-372z" horiz-adv-x="465" />

<glyph glyph-name="content-1" unicode="&#xe825;" d="M781 606h-562c-25 0-50-18-50-56 0-37 25-56 50-56h562c25 0 50 25 50 56 0 31-25 56-50 56z m0-200h-562c-25 0-50-18-50-56 0-37 25-56 50-56h562c25 0 50 25 50 56 0 31-25 56-50 56z m-218-200h-344c-25 0-50-25-50-56 0-31 25-56 50-56h344c25 0 50 25 50 56 0 31-25 56-50 56z m312 644h-750c-69 0-125-56-125-125v-750c0-69 56-125 125-125h750c69 0 125 56 125 125v750c0 69-56 125-125 125z m25-875c0-13-12-25-25-25h-750c-12 0-25 12-25 25v750c0 13 13 25 25 25h750c13 0 25-12 25-25v-750z" horiz-adv-x="1000" />

<glyph glyph-name="radius-01" unicode="&#xe82f;" d="M750 850h-125v-125h125c69 0 125-56 125-125v-137h125v137c0 138-112 250-250 250z m-750-250v-137h125v137c0 69 56 125 125 125h144v125h-144c-137 0-250-112-250-250z m875-369v-137c0-69-56-125-125-125h-125v-125h125c138 0 250 112 250 250v137h-125z m-750-137v137h-125v-137c0-138 113-250 250-250h144v125h-144c-69 0-125 56-125 125z" horiz-adv-x="1000" />

<glyph glyph-name="carousel-basic" unicode="&#xe830;" d="M77 774c-1-1-2-2-2-5v-838c0-3 1-4 2-5s1-1 4-1h838c1 1 1 3 1 5l-1 4v3 832c0 3-1 4-2 5s-2 1-4 1h-832c-3 0-4-1-4-1z m-77-5a80 80 0 0 0 81 81h832a80 80 0 0 0 81-81v-828c3-23-1-46-16-64-15-19-37-27-59-27h-838a80 80 0 0 0-81 81v838z m775-188h-56c-19 44-69 75-119 75-56 0-100-31-119-75h-256c-31 0-56-25-56-56s25-56 56-56h256c19-50 63-81 119-81s100 31 119 75h56c31 0 56 25 56 56s-25 62-56 62z m-494-462h-56c-31 0-56 25-56 56s25 56 56 56h56c19 50 63 82 119 82s100-32 119-82h256c31 0 56-25 56-56s-25-56-56-56h-256c-19-44-63-75-119-75-50 0-100 31-119 75z" horiz-adv-x="1000" />

<glyph glyph-name="navigation" unicode="&#xe833;" d="M138 350l256 256a53 53 0 0 1 0 82c-25 18-63 18-81-7l-294-293a53 53 0 0 1 0-82l294-287c18-19 56-19 75 0a53 53 0 0 1 0 81l-250 250z m550 331l293-293c25-19 25-57-6-82l-294-293c-25-26-62-13-75 0a53 53 0 0 0 0 81l257 256-250 256c-25 19-25 57-7 75a53 53 0 0 0 82 0z m-282-206a63 63 0 0 1-62-62v-125a63 63 0 0 1 62-63h188a63 63 0 0 1 62 63v125a63 63 0 0 1-62 62h-188z" horiz-adv-x="1000" />

<glyph glyph-name="pagination" unicode="&#xe834;" d="M875 725h-750c-69 0-125-57-125-125v-500c0-69 56-125 125-125h750c69 0 125 56 125 125v500c0 68-56 125-125 125z m31-625c0-19-12-32-31-32h-750c-19 0-31 13-31 32v500c0 18 12 31 31 31h750c19 0 31-13 31-31v-500z m-193 143c56 0 106 50 106 107 0 56-50 106-106 106-57 0-107-50-107-106 0-57 50-107 107-107z m-388-31c75 0 138 63 138 138 0 75-63 137-138 137-75 0-137-62-137-137 0-75 62-138 137-138z" horiz-adv-x="1000" />

<glyph glyph-name="border" unicode="&#xe835;" d="M1000-150h-1000v1000h1000v-1000z m-889 111h778v778h-778v-778z" horiz-adv-x="1000" />

<glyph glyph-name="basic-preferences" unicode="&#xe836;" d="M930 419h-61c-9 50-29 98-58 141l43 43a39 39 0 0 1 0 56l-43 43a39 39 0 0 1-56 0l-43-42c-43 30-91 49-141 59v61a40 40 0 0 1-40 40h-61a40 40 0 0 1-40-40v-60c-50-9-98-28-142-58l-42 42a39 39 0 0 1-56 0l-43-43a39 39 0 0 1 0-56l42-42c-30-44-50-92-60-142h-59a40 40 0 0 1-40-40v-61a40 40 0 0 1 40-40h58c9-50 29-99 59-143l-41-41a39 39 0 0 1 0-56l43-43a39 39 0 0 1 56 0l41 41c44-30 92-50 143-59v-58a40 40 0 0 1 40-40h61a40 40 0 0 1 40 40v59a361 361 0 0 1 142 59l42-42a39 39 0 0 1 56 0l43 43a39 39 0 0 1 0 56l-42 42c30 43 49 92 59 142h60a40 40 0 0 1 40 40v61c0 20-18 38-40 38h0z m-430-325c-142 0-256 115-256 256s114 256 256 256 256-115 256-256-114-256-256-256z m0 349c-51 0-93-42-93-93a40 40 0 1 0-80 0c0 96 78 174 174 174a40 40 0 0 0 40-40 42 42 0 0 0-41-41h0z" horiz-adv-x="1000" />

<glyph glyph-name="add-to-cart-button" unicode="&#xe837;" d="M292-150c46 0 83 37 83 83s-37 84-83 84-84-38-84-84 38-83 84-83z m416 0c46 0 84 37 84 83s-38 84-84 84-83-38-83-84 37-83 83-83z m115 452c-6-22-19-42-37-56a104 104 0 0 0-64-21h-421a14 14 0 0 0-14 13l-36 279h187a63 63 0 1 1 0 125h-202l-11 86a139 139 0 0 1-138 122h-24a63 63 0 1 1 0-125h24a14 14 0 0 0 14-12l62-490a139 139 0 0 1 138-123h421c51 0 99 17 139 47a229 229 0 0 1 82 121l1 3a63 63 0 0 1-60 79 63 63 0 0 1-60-46l-1-2z m115 423h-63v63a63 63 0 0 1-62 62 63 63 0 0 1-63-62v-63h-62a63 63 0 1 1 0-125h62v-62a63 63 0 1 1 125 0v62h63a63 63 0 1 1 0 125z" horiz-adv-x="1000" />

<glyph glyph-name="template-styles" unicode="&#xe838;" d="M529 500l263 304a111 111 0 0 0 75 46c29 4 62 0 87-21 25-16 42-46 46-75s0-62-21-87l-283-325c8-59-8-121-54-167-71-71-154-83-234-83s-195 66-200 66c-12 9-16 21-16 38 0 12 12 25 25 29 58 21 71 63 87 108 13 38 29 80 63 113 37 37 87 54 137 54h21 4z m75-29c13-8 25-17 34-29 8-9 16-17 20-25l255 291c4 9 8 17 4 30a34 34 0 0 1-17 25 60 60 0 0 1-29 8 34 34 0 0 1-25-17l-246-283h4z m-21-79a114 114 0 0 1-79 33c-29 0-62-12-83-33s-33-50-42-84c-12-37-29-83-71-120 25-13 63-21 100-21 71 0 130 8 175 58a118 118 0 0 1 0 167z m317 37v-454c0-13-8-21-21-21h-758c-13 0-21 8-21 21v754c0 13 8 21 21 21h454a48 48 0 0 1 50 50 48 48 0 0 1-50 50h-454c-67 0-121-54-121-121v-754c0-67 54-121 121-121h754c67 0 121 54 121 121v454a48 48 0 0 1-50 50c-29 0-46-21-46-50z" horiz-adv-x="1000" />

<glyph glyph-name="display-settings" unicode="&#xe83a;" d="M388 381h-307a83 83 0 0 0-81 82v306a83 83 0 0 0 81 81h307a83 83 0 0 0 81-81v-307a83 83 0 0 0-81-81z m-282 94h257s12 0 12 13v256s0 12-12 12h-257s-12 0-12-12v-257s0-12 12-12z m813-94h-306a83 83 0 0 0-82 82v306a83 83 0 0 0 82 81h306a83 83 0 0 0 81-81v-307a83 83 0 0 0-81-81z m-281 94h256s12 0 12 13v256s0 12-12 12h-256s-13 0-13-12v-257s0-12 13-12z m-250-625h-307a83 83 0 0 0-81 81v307a83 83 0 0 0 81 81h307a83 83 0 0 0 81-81v-307a83 83 0 0 0-81-81z m-282 94h257s12 0 12 12v257s0 12-12 12h-257s-12 0-12-12v-257s0-12 12-12z m813-94h-306a83 83 0 0 0-82 81v307a83 83 0 0 0 82 81h306a83 83 0 0 0 81-81v-307a83 83 0 0 0-81-81z m-281 94h256s12 0 12 12v257s0 12-12 12h-256s-13 0-13-12v-257s0-12 13-12z" horiz-adv-x="1000" />

<glyph glyph-name="filter-settings" unicode="&#xe83b;" d="M604-150a62 62 0 0 0-32 9l-208 125a63 63 0 0 0-31 54v215l-248 304a175 175 0 0 0-43 116 178 178 0 0 0 52 125 178 178 0 0 0 125 52h562c34 0 68-10 96-28s52-45 66-77 18-65 13-99-20-65-42-91l-247-304v-339a63 63 0 0 0-63-62z m-146 223l84-50v250a63 63 0 0 0 14 39l262 324c10 10 15 23 15 37s-5 27-15 37-23 15-37 15h-562c-10 0-20-3-28-8s-16-14-20-23-5-19-4-29 6-19 13-27l264-323a63 63 0 0 0 14-40v-202z" horiz-adv-x="1000" />

<glyph glyph-name="live-filter-styles" unicode="&#xe83c;" d="M938 808h-459a63 63 0 0 1 0-125h459a63 63 0 0 1 0 125z m-167-250h-292a63 63 0 1 1 0-125h292a63 63 0 1 1 0 125z m-167-250h-125a63 63 0 1 1 0-125h125a63 63 0 1 1 0 125z m-222-225h-90v705a63 63 0 1 1-125 0v-705h-84a42 42 0 0 1-41-42c0-11 4-22 12-29l149-150a42 42 0 0 1 59 0l150 150a42 42 0 0 1-30 71z" horiz-adv-x="1000" />

<glyph glyph-name="load-more-pagination" unicode="&#xe83d;" d="M875 413c-34 0-62-29-62-63 0-172-141-312-313-312s-312 140-312 312 140 313 312 313a313 313 0 0 0 159-44l-59-60c-9-9-12-21-6-34s15-19 28-19h219a29 29 0 0 1 31 32v218c0 13-6 25-19 28-9 7-22 4-31-6l-72-72c-72 53-159 82-250 82-241 0-437-197-437-438s196-438 437-438 438 197 438 438c0 34-29 63-63 63z" horiz-adv-x="1000" />

<glyph glyph-name="product-badge" unicode="&#xe83e;" d="M141 399a19 19 0 0 1 6-25l56-39a17 17 0 0 0 8-17l-4-68c-1-10 6-19 16-20l67-11c7-1 12-6 15-12l25-63c4-9 14-14 23-11l65 20a21 21 0 0 0 19-4l50-46a19 19 0 0 1 26 0l50 46c5 5 12 6 19 4l65-20c10-3 20 2 23 11l25 63c3 6 8 11 15 12l67 11c10 2 17 10 16 20l-5 68c0 7 3 13 8 17l56 39c8 6 11 17 6 25l-33 59a21 21 0 0 0 0 19l33 59a19 19 0 0 1-6 25l-55 39a17 17 0 0 0-8 17l5 68c1 10-6 19-16 20l-68 11c-7 1-12 6-15 12l-25 63c-4 9-14 14-23 11l-65-20a21 21 0 0 0-19 4l-50 46a19 19 0 0 1-26 0l-50-46c-5-5-12-6-19-4l-65 20c-10 3-20-2-23-11l-25-63c-3-6-8-11-15-12l-67-11c-10-2-17-10-16-20l5-68c0-7-3-13-8-17l-56-39c-8-6-11-17-6-25l33-59a21 21 0 0 0 0-19l-34-59z m359 309c132 0 240-108 240-240s-108-240-240-240-240 108-240 240 108 240 240 240z m103-839l-64 198c1 1 3 2 4 3l40 36 52-15c6-2 12-3 18-3 17 0 33 7 45 19l61-188c2-7-4-13-11-11l-72 21c-4 1-7 0-10-3l-46-60c-6-6-15-4-17 3z m-277 60l-72-21c-7-2-13 5-11 11l61 188a64 64 0 0 1 45-19c6 0 12 1 18 3l52 15 40-36c1-1 3-2 4-3l-64-198c-2-7-11-8-16-3l-46 60c-4 2-8 4-11 3z m2 538c0 95 77 173 172 173 18 0 32-14 32-32s-14-32-32-32a108 108 0 0 1-108-108c0-18-14-32-32-32s-32 14-32 31h0z" horiz-adv-x="1000" />

<glyph glyph-name="wpcp-right-open" unicode="&#xf006;" d="M0 0q0 25 18 43l305 304-305 304q-18 18-18 44t18 43 44 18 43-18l390-391-390-391q-19-18-43-18t-44 18q-18 18-18 44z" horiz-adv-x="495.1" />

<glyph glyph-name="wpcp-left-open" unicode="&#xf007;" d="M0 353l391 391q18 18 43 18 24 0 43-18 18-18 18-44t-18-43l-304-304 304-305q18-17 18-43t-18-43q-18-18-43-18t-43 18z" horiz-adv-x="495.1" />

<glyph glyph-name="wpcp-angle-left" unicode="&#xf104;" d="M350 546q0-7-6-12l-219-220 219-219q6-6 6-13t-6-13l-28-28q-5-5-12-5t-13 5l-260 261q-6 5-6 12t6 13l260 260q5 6 13 6t12-6l28-28q6-5 6-13z" horiz-adv-x="357.1" />

<glyph glyph-name="wpcp-angle-right" unicode="&#xf105;" d="M332 314q0-7-5-12l-261-261q-5-5-12-5t-13 5l-28 28q-6 6-6 13t6 13l219 219-219 220q-6 5-6 12t6 13l28 28q5 6 13 6t12-6l261-260q5-5 5-13z" horiz-adv-x="357.1" />
</font>
</defs>
</svg>
